Lossless music download

Deep Purple - Machine Head (24K+Gold HDCD, AFZ-065) 2010

Hard Rock | Author: DaRReL | 25-12-2010, 23:59
Performer: Deep Purple
Album: Machine Head (24K+Gold HDCD, AFZ-065)
Label: ® 1972 Warner Bros. Records Inc./Rhino Entertainment Company. © 2010 Audio Fidelity, Mastered by STEVE HOFFMAN, 24K+Gold HDCD. Made in USA.
Genre: Hard Rock
Year: 1972 (2010)
Format: WV (image + .cue)
Bitrate: lossless
Covers: in archive
Amount of tracks: 7
Size RAR: ~ 288 mb
Upload: depositfiles.com, letitbit.net, trubobit.net
Recovery 3%

Tracklist: #AFZ-065
--------------------------------
01. Highway Star [0:06:07.18]
02. Maybe I'm A Leo [0:04:51.61]
03. Pictures Of Home [0:05:06.36]
04. Never Before [0:04:03.52]
05. Smoke On The Water [0:05:43.01]
06. Lazy [0:07:23.11]
07. Space Truckin' [0:04:34.44]
-----------------------------------------------------
Total Time: [0:37:49.73]

[/spoiler][spoiler="Log EAC"]Exact Audio Copy V0.99 prebeta 5 from 4. May 2009

EAC extraction logfile from 29. September 2010, 8:05

Deep Purple / Machine Head (24K+Gold HDCD, AFZ-065)

Used drive : Optiarc DVD RW AD-7203S Adapter: 3 ID: 1

Read mode : Secure
Utilize accurate stream : Yes
Defeat audio cache : Yes
Make use of C2 pointers : No

Read offset correction : 48
Overread into Lead-In and Lead-Out : No
Fill up missing offset samples with silence : Yes
Delete leading and trailing silent blocks : No
Null samples used in CRC calculations : Yes
Used interface : Installed external ASPI interface

Used output format : Internal WAV Routines
Sample format : 44.100 Hz; 16 Bit; Stereo


TOC of the extracted CD

Track | Start | Length | Start sector | End sector
---------------------------------------------------------
1 | 0:00.00 | 6:07.18 | 0 | 27542
2 | 6:07.18 | 4:51.61 | 27543 | 49428
3 | 10:59.04 | 5:06.36 | 49429 | 72414
4 | 16:05.40 | 4:03.52 | 72415 | 90691
5 | 20:09.17 | 5:43.01 | 90692 | 116417
6 | 25:52.18 | 7:23.11 | 116418 | 149653
7 | 33:15.29 | 4:34.44 | 149654 | 170247


Range status and errors

Selected range

Filename E:\Audio in lossless\$ Deep Purple $\Deep Purple © 1972 - Machine Head (24K+Gold HDCD, AFZ-065)\Deep Purple - Machine Head (24K+Gold HDCD, AFZ-065).wav

Peak level 93.3 %
Range quality 100.0 %
Copy CRC 5C1FE451
Copy OK

No errors occurred


AccurateRip summary

Track 1 not present in database
Track 2 not present in database
Track 3 not present in database
Track 4 not present in database
Track 5 not present in database
Track 6 not present in database
Track 7 not present in database

None of the tracks are present in the AccurateRip database

End of status report
[/spoiler][spoiler="auCDtect"]FILE: Deep Purple - Machine Head (24K+Gold HDCD, AFZ-065).wv
Size: 253234929 Hash: A2818989C574902ADE0A18E5864AF822 Accuracy: -m8
Conclusion: CDDA 100%
Signature: 829AF1F3010686DF13EDE58CD02F3302D804EC69[/spoiler]
--DepositFiles.com--
You Must Register Before You Can View This Hide Text For Download.

--LetitBit.net--
You Must Register Before You Can View This Hide Text For Download.

--TurboBit.net--
You Must Register Before You Can View This Hide Text For Download.




   Comments: 0 | Views: 3701 |
    Related Releases:     
  • Deep Purple - Machine Head (1972) [Japanese Vinyl Replica CD]
  • Deep Purple - Fireball (24K+Gold HDCD, AFZ-098) 2010
  • Deep Purple - Made In Japan (24K+Gold DCC, GZS-1120) 1973
  • Deep Purple - Come Taste The Band: 35th Anniversary Edition, 2CD Set (2010)
  • Def Leppard - Retromania, 2CD (2010 Sony BMG, 8275678 895)

  • Information

    Members of Guests cannot leave comments.
    Services
    Vote
    What is your favorite Music?
    Pop
    Rock
    Metal
    Rap
    Jazz
    Blues
    Electronic
    Folk
    Punk
    Reggae
    Indie
    Classic