Lossless music download

Scale The Summit - The Collective (2011)

Progressive Metal | Author: ssrocker | 3-08-2012, 09:03
Scale The Summit - The Collective (2011)Artist: Scale The Summit
Страна: USA
Альбом: The Collective
Genre: Instrumental /Progressive Metal
Год: 2011
Формат: FLAC (tracks + CUE + LOG + Tau)
Размер: 324 Mb
Залито: FileSonic / LetitBit / FileServe

Треклист:
1. Colossal
2. Whales
3. Emersion
4. The Levitated
5. Secret Earth
6. Gallows
7. Origin of Species
8. Alpenglow
9. Black Hills
10. Balkan
11. Drifting Figures

[spoiler=log]
Exact Audio Copy V1.0 beta 1 from 15. November 2010

EAC extraction logfile from 26. February 2011, 15:30

Scale The Summit / The Collective

Used drive : HL-DT-STDVDRAM GT30N Adapter: 1 ID: 0

Read mode : Secure
Utilize accurate stream : Yes
Defeat audio cache : Yes
Make use of C2 pointers : No

Read offset correction : 103
Overread into Lead-In and Lead-Out : No
Fill up missing offset samples with silence : Yes
Delete leading and trailing silent blocks : No
Null samples used in CRC calculations : No
Used interface : Native Win32 interface for Win NT & 2000
Gap handling : Appended to previous track

Used output format : User Defined Encoder
Selected bitrate : 896 kBit/s
Quality : High
Add ID3 tag : No
Command line compressor : C:\Program Files (x86)\Exact Audio Copy\FLAC\FLAC.EXE
Additional command line options : -6 -V -T "ARTIST=%a" -T "TITLE=%t" -T "ALBUM=%g" -T "DATE=%y" -T "TRACKNUMBER=%n" -T "GENRE=%m" -T "COMMENT=%e" %j--picture="%i"%j %s -o %d


TOC of the extracted CD

Track | Start | Length | Start sector | End sector
---------------------------------------------------------
1 | 0:00.00 | 3:48.14 | 0 | 17113
2 | 3:48.14 | 6:28.45 | 17114 | 46258
3 | 10:16.59 | 2:33.31 | 46259 | 57764
4 | 12:50.15 | 3:02.19 | 57765 | 71433
5 | 15:52.34 | 3:38.44 | 71434 | 87827
6 | 19:31.03 | 4:33.53 | 87828 | 108355
7 | 24:04.56 | 2:45.31 | 108356 | 120761
8 | 26:50.12 | 3:58.09 | 120762 | 138620
9 | 30:48.21 | 7:59.04 | 138621 | 174549
10 | 38:47.25 | 3:44.30 | 174550 | 191379
11 | 42:31.55 | 3:10.09 | 191380 | 205638


Track 1

Filename C:\Users\Tim\Music\What.cd and all that\Scale the summit perfect FLAC\01 - Track01.wav

Peak level 99.1 %
Extraction speed 2.1 X
Track quality 100.0 %
Test CRC 3DA4BF69
Copy CRC 3DA4BF69
Track not present in AccurateRip database
Copy OK

Track 2

Filename C:\Users\Tim\Music\What.cd and all that\Scale the summit perfect FLAC\02 - Track02.wav

Peak level 99.1 %
Extraction speed 2.4 X
Track quality 100.0 %
Test CRC 3C7D287F
Copy CRC 3C7D287F
Track not present in AccurateRip database
Copy OK

Track 3

Filename C:\Users\Tim\Music\What.cd and all that\Scale the summit perfect FLAC\03 - Track03.wav

Peak level 99.1 %
Extraction speed 2.5 X
Track quality 100.0 %
Test CRC B64ABFFA
Copy CRC B64ABFFA
Track not present in AccurateRip database
Copy OK

Track 4

Filename C:\Users\Tim\Music\What.cd and all that\Scale the summit perfect FLAC\04 - Track04.wav

Peak level 99.1 %
Extraction speed 2.7 X
Track quality 100.0 %
Test CRC 9029E032
Copy CRC 9029E032
Track not present in AccurateRip database
Copy OK

Track 5

Filename C:\Users\Tim\Music\What.cd and all that\Scale the summit perfect FLAC\05 - Track05.wav

Peak level 99.1 %
Extraction speed 2.9 X
Track quality 100.0 %
Test CRC FE866992
Copy CRC FE866992
Track not present in AccurateRip database
Copy OK

Track 6

Filename C:\Users\Tim\Music\What.cd and all that\Scale the summit perfect FLAC\06 - Track06.wav

Peak level 99.1 %
Extraction speed 3.1 X
Track quality 100.0 %
Test CRC 9BE62A9C
Copy CRC 9BE62A9C
Track not present in AccurateRip database
Copy OK

Track 7

Filename C:\Users\Tim\Music\What.cd and all that\Scale the summit perfect FLAC\07 - Track07.wav

Peak level 99.1 %
Extraction speed 3.2 X
Track quality 100.0 %
Test CRC 3B0BC821
Copy CRC 3B0BC821
Track not present in AccurateRip database
Copy OK

Track 8

Filename C:\Users\Tim\Music\What.cd and all that\Scale the summit perfect FLAC\08 - Track08.wav

Peak level 99.1 %
Extraction speed 3.4 X
Track quality 100.0 %
Test CRC 246CB292
Copy CRC 246CB292
Track not present in AccurateRip database
Copy OK

Track 9

Filename C:\Users\Tim\Music\What.cd and all that\Scale the summit perfect FLAC\09 - Track09.wav

Peak level 99.1 %
Extraction speed 3.6 X
Track quality 100.0 %
Test CRC 3B62B1C3
Copy CRC 3B62B1C3
Track not present in AccurateRip database
Copy OK

Track 10

Filename C:\Users\Tim\Music\What.cd and all that\Scale the summit perfect FLAC\10 - Track10.wav

Peak level 99.1 %
Extraction speed 3.8 X
Track quality 100.0 %
Test CRC 497CE27A
Copy CRC 497CE27A
Track not present in AccurateRip database
Copy OK

Track 11

Filename C:\Users\Tim\Music\What.cd and all that\Scale the summit perfect FLAC\11 - Track11.wav

Peak level 99.1 %
Extraction speed 3.9 X
Track quality 100.0 %
Test CRC 4A436DD1
Copy CRC 4A436DD1
Track not present in AccurateRip database
Copy OK


None of the tracks are present in the AccurateRip database

No errors occurred

End of status report


Download Scale The Summit - The Collective (2011)


   Comments: 2 | Views: 5009 |
    Related Releases:     
  • George Benson - The New Boss Guitar Of George Benson (1964)
  • Stromae - Cheese (2010)
  • Curren$y - Pilot Talk

  • #1: ThePlagu3 (2 August 2012 22:35)

    group: Visitors
    registration: 2.08.2012
    LINKS ARE DOWN
    DOWNLOAD DOES NOT WORK
    ICQ:
    #2: Ps1x (3 August 2012 09:03)

    group: Admins
    registration: 27.01.2010
    Link Fixed
    ICQ:
    Information

    Members of Guests cannot leave comments.
    Services
    Vote
    What is your favorite Music?
    Pop
    Rock
    Metal
    Rap
    Jazz
    Blues
    Electronic
    Folk
    Punk
    Reggae
    Indie
    Classic